Annabelle Rathore 2021 x264 720p WebHD Esub AAC Hindi THE GOPI SAHI


0

0
seeders: 91 leechers: 13 updated: 2 weeks ago
Added 4 weeks ago in Movies - Bollywood
Downloaded 76 times.
Annabelle Rathore 2021 x264 720p WebHD Esub AAC Hindi THE GOPI SAHI
  • Release date: 17 Sep 2021
  • Release year: 2021
  • Runtime: 135 mintues
  • Country: India
Plot:
Rudra, a small-time burglar gets into a palace full of ghosts. Along with the ghost, she finds out the mystery about the owner of the palace- Annabelle Sethupathi.

Available in versions:
x264 720p 1080p

Files

Annabelle Rathore 2021 x264 720p WebHD Esub AAC Hindi THE GOPI SAHI.mkv (1 GB)
Annabelle Rathore 2021 x264 720p WebHD Esub AAC Hindi THE GOPI SAHI.mkv 1 GB

Description

Greets

Admin , Moderator , Noir, Ex0duS5150, theeshiznit, MisterQ, UserHEVC, miok, Silmarillion, Mr. Blue, MaDHeX and many more ;

Join Us On TeleGram

https://t.me/gopisahit



Annabelle Rathore 2021 x264 720p WebHD Esub AAC Hindi THE GOPI SAHI

Format : Matroska
Format version : Version 4
File size : 1.03 GiB
Duration : 2 h 14 min
Overall bit rate : 1 093 kb/s
Movie name : Annabelle Rathore 2021 GOPI SAHI
Encoded date : UTC 2021-09-18 09:25:49

Video
ID : 1
Format : AVC
Format/Info : Advanced Video Codec
Format profile : [email protected]
Format settings : CABAC / 12 Ref Frames
Format settings, CABAC : Yes
Format settings, Reference fra : 12 frames
Codec ID : V_MPEG4/ISO/AVC
Duration : 2 h 14 min
Bit rate : 899 kb/s
Width : 1 280 pixels
Height : 534 pixels
Display aspect ratio : 2.35:1
Frame rate mode : Constant
Frame rate : 24.000 FPS
Color space : YUV
Chroma subsampling : 4:2:0
Bit depth : 8 bits
Scan type : Progressive
Bits/(Pixel*Frame) : 0.055
Stream size : 865 MiB (82%)
Title : GOPI SAHI
Writing library : x264 core 163 r3059 b684ebe0

Audio
ID : 2
Format : AAC LC
Format/Info : Advanced Audio Codec Low Complexity
Codec ID : A_AAC-2
Duration : 2 h 14 min
Bit rate : 192 kb/s
Channel(s) : 6 channels
Channel layout : C L R Ls Rs LFE
Sampling rate : 48.0 kHz
Frame rate : 46.875 FPS (1024 SPF)
Compression mode : Lossy
Delay relative to video : -21 ms
Stream size : 185 MiB (18%)
Title : GOPI SAHI
Language : Hindi
Default : Yes
Forced : No

Text
Language : English





Trackers

Tracker name
udp://p4p.arenabg.com:1337/announce
udp://exodus.desync.com:6969/announce
udp://tracker.sbsub.com:2710/announce
udp://tracker.opentrackr.org:1337/announce
udp://open.stealth.si:80/announce
udp://retracker.lanta-net.ru:2710/announce
http://bt1.archive.org:6969/announce
http://bt2.archive.org:6969/announce
http://tracker.files.fm:6969/announce
udp://tracker.zerobytes.xyz:1337/announce
https://tracker.nitrix.me:443/announce
udp://cutiegirl.ru:6969/announce
udp://vibe.community:6969/announce
udp://wassermann.online:6969/announce
udp://tracker.zer0day.to:1337/announce
udp://tracker.leechers-paradise.org:6969/announce
udp://coppersurfer.tk:6969/announce
Torrent hash: 3F2DB049AACF31DCCB0EFDC1E1EDF6C6FE151BB0

Location

1337x.to Annabelle Rathore 2021 x264 720p WebHD Esub AAC Hindi THE GOPI SAHI

0 Comment

Login to post comments