Annaatthe (2021) Hindi 720p NF WEBRip X265 HEVC 1 2GB Esubs - ItsMyRip


0

0
seeders: 152 leechers: 12 updated: 21 hours ago
Added 1 week ago in Movies - Bollywood
Downloaded 42 times.
Annaatthe (2021) Hindi 720p NF WEBRip X265 HEVC 1 2GB Esubs - ItsMyRip
  • Release date: 4 Nov 2021
  • Release year: 2021
  • Runtime: 163 mintues
  • Country: India
  • Keywords: brother sister relationship
Plot:
Kaaliyan has a sister who marries a young man without the permission from Kaaliyan and moves to Kolkata with her husband , where she faces unknown threats. Soon her brother Kaaliyan comes to the rescue.

Available in versions:
x264 720p

Files

Annaatthe (2021) Hindi 720p NF WEBRip X265 HEVC 1.2GB Esubs - ItsMyRip.mkv (1.2 GB)
Annaatthe (2021) Hindi 720p NF WEBRip X265 HEVC 1.2GB Esubs - ItsMyRip.mkv 1.2 GB
Torrent Provided By ItsMyRip Official.txt 102.4 B

Description







Video
ID : 1
Format : HEVC
Format/Info : High Efficiency Video Coding
Format profile : [email protected]@Main
Codec ID : V_MPEGH/ISO/HEVC
Duration : 2 h 41 min
Bit rate : 847 kb/s
Width : 1 280 pixels
Height : 544 pixels
Display aspect ratio : 2.35:1
Frame rate mode : Constant
Frame rate : 24.000 FPS
Color space : YUV
Chroma subsampling : 4:2:0
Bit depth : 8 bits
Bits/(Pixel*Frame) : 0.051
Stream size : 977 MiB (81%)
Default : Yes
Forced : No

Audio
ID : 2
Format : AC-3
Format/Info : Audio Coding 3
Commercial name : Dolby Digital
Codec ID : A_AC3
Duration : 2 h 41 min
Bit rate mode : Constant
Bit rate : 192 kb/s
Channel(s) : 6 channels
Channel layout : L R C LFE Ls Rs
Sampling rate : 48.0 kHz
Frame rate : 31.250 FPS (1536 SPF)
Compression mode : Lossy
Stream size : 222 MiB (18%)
Language : Hindi
Service kind : Complete Main
Default : No
Forced : No

Text #1
ID : 3
Format : UTF-8
Codec ID : S_TEXT/UTF8
Codec ID/Info : UTF-8 Plain Text
Duration : 2 h 38 min
Bit rate : 64 b/s
Count of elements : 2199
Stream size : 75.4 KiB (0%)
Language : English
Default : No
Forced : No

Related Torrents

Trackers

Tracker name
udp://tracker.opentrackr.org:1337/announce
udp://opentor.org:2710/announce
udp://9.rarbg.me:2980/announce
udp://9.rarbg.to:2940/announce
udp://tracker.uw0.xyz:6969/announce
udp://open.stealth.si:80/announce
udp://tracker.torrent.eu.org:451/announce
udp://ipv4.tracker.harry.lu:80/announce
udp://tracker.openbittorrent.com:1337/announce
udp://tracker.zer0day.to:1337/announce
udp://tracker.leechers-paradise.org:6969/announce
udp://coppersurfer.tk:6969/announce
Torrent hash: 583F82968BA14E848637A3CFA96251B8A7ECAE0B

0 Comment

Login to post comments