Annaatthe (2021) 720p 10bit NF WEBRip x265 HEVC [Hindi AAC 5 1 + Tamil AAC 5 1] ESub ~ Immortal


0

0
seeders: 49 leechers: 5 updated: 20 hours ago
Added 1 week ago in Movies - Dubbed Movies
Downloaded 34 times.
Annaatthe (2021) 720p 10bit NF WEBRip x265 HEVC [Hindi AAC 5 1 + Tamil AAC 5 1] ESub ~ Immortal
  • Release date: 4 Nov 2021
  • Release year: 2021
  • Runtime: 163 mintues
  • Country: India
  • Keywords: brother sister relationship
Plot:
Kaaliyan has a sister who marries a young man without the permission from Kaaliyan and moves to Kolkata with her husband , where she faces unknown threats. Soon her brother Kaaliyan comes to the rescue.

Available in versions:
x264 720p

Files

Annaatthe (2021) 720p 10bit NF WEBRip x265 HEVC [Hindi AAC 5.1 + Tamil AAC 5.1] ESub ~ Immortal.mkv (1.9 GB)
Annaatthe (2021) 720p 10bit NF WEBRip x265 HEVC [Hindi AAC 5.1 + Tamil AAC 5.1] ESub ~ Immortal.mkv 1.9 GB

Description

Annaatthe (2021) 720p 10bit NF WEBRip x265 HEVC [Hindi AAC 5.1 + Tamil AAC 5.1] ESub _ Immortal



Video
ID : 1
Format : HEVC
Format/Info : High Efficiency Video Coding
Format profile : Main [email protected]@Main
Codec ID : V_MPEGH/ISO/HEVC
Duration : 2 h 41 min
Bit rate : 1 274 kb/s
Width : 1 280 pixels
Height : 546 pixels
Display aspect ratio : 2.35:1
Frame rate mode : Constant
Frame rate : 24.000 FPS
Color space : YUV
Chroma subsampling : 4:2:0
Bit depth : 10 bits
Bits/(Pixel*Frame) : 0.076
Stream size : 1.44 GiB (77%)
Title : Encoded By ~ Immortal
Language : Tamil
Default : Yes
Forced : No
Color range : Limited
Color primaries : BT.709
Transfer characteristics : BT.709
Matrix coefficients : BT.709

Audio #1
ID : 2
Format : AAC LC
Format/Info : Advanced Audio Codec Low Complexity
Codec ID : A_AAC-2
Duration : 2 h 41 min
Bit rate : 192 kb/s
Channel(s) : 6 channels
Channel layout : C L R Ls Rs LFE
Sampling rate : 48.0 kHz
Frame rate : 46.875 FPS (1024 SPF)
Compression mode : Lossy
Delay relative to video : -21 ms
Stream size : 222 MiB (12%)
Title : Hindi AAC 5.1 ~ Immortal
Language : Hindi
Default : Yes
Forced : Yes

Audio #2
ID : 3
Format : AAC LC
Format/Info : Advanced Audio Codec Low Complexity
Codec ID : A_AAC-2
Duration : 2 h 41 min
Bit rate : 192 kb/s
Channel(s) : 6 channels
Channel layout : C L R Ls Rs LFE
Sampling rate : 48.0 kHz
Frame rate : 46.875 FPS (1024 SPF)
Compression mode : Lossy
Delay relative to video : -21 ms
Stream size : 222 MiB (12%)
Title : Tamil AAC 5.1 ~ Immortal
Language : Tamil
Default : No
Forced : No

Text
ID : 4
Format : ASS
Codec ID : S_TEXT/ASS
Codec ID/Info : Advanced Sub Station Alpha
Bit rate : 0 b/s
Count of elements : 0
Compression mode : Lossless
Stream size : 0.00 Byte (0%)
Title : English
Language : English
Default : No
Forced : No













Quote:

???? Encoding Source :— Annaatthe.2021.1080p.NF.WEB-DL.Multi.DDP5.1.x264-REVOLT (10.1GB) ????

Related Torrents

Trackers

Tracker name
udp://tracker.opentrackr.org:1337/announce
udp://9.rarbg.com:2810/announce
udp://tracker.openbittorrent.com:6969/announce
udp://exodus.desync.com:6969/announce
http://tracker.openbittorrent.com:80/announce
http://openbittorrent.com:80/announce
udp://www.torrent.eu.org:451/announce
udp://vibe.community:6969/announce
udp://u.wwwww.wtf:1/announce
udp://tracker1.bt.moack.co.kr:80/announce
udp://tracker0.ufibox.com:6969/announce
udp://tracker.zerobytes.xyz:1337/announce
udp://tracker.torrent.eu.org:451/announce
udp://tracker.moeking.me:6969/announce
udp://tracker.zer0day.to:1337/announce
udp://tracker.leechers-paradise.org:6969/announce
udp://coppersurfer.tk:6969/announce
Torrent hash: 34391A0D68C4C6F8F3E07ACB663B95F8AE887448

0 Comment

Login to post comments