Agent Sai Srinivasa Athreya (2019) UNCUT 720p 10bit AMZN WEBRip x265 HEVC [Org YT Hindi DD 2 0 ~384Kbps + Telugu DD 2 0] MSubs ~ Immortal


0

0
seeders: 19 leechers: 2 updated: 20 hours ago
Added 1 week ago in Movies - Dubbed Movies
Downloaded 5 times.
Agent Sai Srinivasa Athreya (2019) UNCUT 720p 10bit AMZN WEBRip x265 HEVC [Org YT Hindi DD 2 0 ~384Kbps + Telugu DD 2 0] MSubs ~ Immortal
  • Release date: 20 Jun 2019
  • Release year: 2019
  • Runtime: 148 mintues
  • Country: India
  • Budget: $20,000
Plot:
Agent Athreya (Navin Polisetty) starts a detective agency in Nellore (a city) named FBI (Fathima Bureau of Investigation) and covers small cases. The silliness and façade continue until Athreya lands in trouble when he seriously pursues a dead found on the rails. How Athreya untangles the mystery is what the film is all about.

Available in versions:
Other WEB-DL x264 x265 480p 720p 1080p

Files

Agent Sai Srinivasa Athreya (2019) UNCUT 720p 10bit AMZN WEBRip x265 HEVC [Org YT Hindi DD 2.0 ~384Kbps + Telugu DD 2.0] MSubs ~ Immortal.mkv (1.5 GB)
Agent Sai Srinivasa Athreya (2019) UNCUT 720p 10bit AMZN WEBRip x265 HEVC [Org YT Hindi DD 2.0 ~384Kbps + Telugu DD 2.0] MSubs ~ Immortal.mkv 1.5 GB

Description

Agent Sai Srinivasa Athreya (2019) UNCUT 720p 10bit AMZN WEBRip x265 HEVC [Org YT Hindi DD 2.0 ~384Kbps + Telugu DD 2.0] MSubs ~ Immortal



Video
ID : 1
Format : HEVC
Format/Info : High Efficiency Video Coding
Format profile : Main [email protected]@Main
Codec ID : V_MPEGH/ISO/HEVC
Duration : 2 h 24 min
Bit rate : 911 kb/s
Width : 1 280 pixels
Height : 534 pixels
Display aspect ratio : 2.40:1
Frame rate mode : Constant
Frame rate : 24.000 FPS
Color space : YUV
Chroma subsampling : 4:2:0
Bit depth : 10 bits
Bits/(Pixel*Frame) : 0.056
Stream size : 943 MiB (62%)
Title : Encoded By ~ Immortal
Language : Telugu
Default : Yes
Forced : No
Color range : Limited
Color primaries : BT.709
Transfer characteristics : BT.709
Matrix coefficients : BT.709

Audio #1
ID : 2
Format : AC-3
Format/Info : Audio Coding 3
Commercial name : Dolby Digital
Codec ID : A_AC3
Duration : 2 h 24 min
Bit rate mode : Constant
Bit rate : 384 kb/s
Channel(s) : 2 channels
Channel layout : L R
Sampling rate : 48.0 kHz
Frame rate : 31.250 FPS (1536 SPF)
Compression mode : Lossy
Delay relative to video : 195 ms
Stream size : 398 MiB (26%)
Title : Org YT Hindi DD 2.0 384Kbps ~ Immortal
Language : Hindi
Service kind : Complete Main
Default : Yes
Forced : Yes

Audio #2
ID : 3
Format : AC-3
Format/Info : Audio Coding 3
Commercial name : Dolby Digital
Codec ID : A_AC3
Duration : 2 h 24 min
Bit rate mode : Constant
Bit rate : 160 kb/s
Channel(s) : 2 channels
Channel layout : L R
Sampling rate : 48.0 kHz
Frame rate : 31.250 FPS (1536 SPF)
Compression mode : Lossy
Delay relative to video : -5 ms
Stream size : 166 MiB (11%)
Title : Telugu DD 2.0 ~ Immortal
Language : Telugu
Service kind : Complete Main
Default : No
Forced : No

Text #1
ID : 4
Format : ASS
Codec ID : S_TEXT/ASS
Codec ID/Info : Advanced Sub Station Alpha
Duration : 2 h 21 min
Bit rate : 253 b/s
Count of elements : 2491
Compression mode : Lossless
Stream size : 263 KiB (0%)
Title : Hindi Sub
Language : Hindi
Default : No
Forced : No

Text #2
ID : 5
Format : ASS
Codec ID : S_TEXT/ASS
Codec ID/Info : Advanced Sub Station Alpha
Duration : 2 h 21 min
Bit rate : 146 b/s
Count of elements : 2819
Compression mode : Lossless
Stream size : 152 KiB (0%)
Title : English Sub
Language : English
Default : No
Forced : No














Quote:

???? Encoding Source :— Agent Sai Srinivasa Athreya (2019) 2160p HQ SDR AMZN WEB-DL x265 [Telugu (DD+ 5.1 - 640Kbps & AAC 2.0 - 128Kbps)] ESubs _TheDNK (9.5GB) ????
???? Audio Credit :— Org YT Hindi Audio Sync By KyoGo ????

Related Torrents

Trackers

Tracker name
udp://tracker.opentrackr.org:1337/announce
udp://9.rarbg.com:2810/announce
udp://tracker.openbittorrent.com:6969/announce
udp://exodus.desync.com:6969/announce
http://tracker.openbittorrent.com:80/announce
http://openbittorrent.com:80/announce
udp://www.torrent.eu.org:451/announce
udp://vibe.community:6969/announce
udp://u.wwwww.wtf:1/announce
udp://tracker1.bt.moack.co.kr:80/announce
udp://tracker0.ufibox.com:6969/announce
udp://tracker.zerobytes.xyz:1337/announce
udp://tracker.torrent.eu.org:451/announce
udp://tracker.moeking.me:6969/announce
udp://tracker.zer0day.to:1337/announce
udp://tracker.leechers-paradise.org:6969/announce
udp://coppersurfer.tk:6969/announce
Torrent hash: FFE66509786CECC60512402010A17717E0C19090

0 Comment

Login to post comments