A Quiet Place Part Ii 2021 x264 720p Esub BluRay Dual Audio English Hindi Tamil Telugu GOPI SAHI


0

0
seeders: 3 leechers: 54 updated: 1 week ago
Added 1 week ago in Movies - Dubbed Movies
Downloaded 13 times.
A Quiet Place Part Ii 2021 x264 720p Esub BluRay Dual Audio English Hindi Tamil Telugu GOPI SAHI
  • Release date: 28 May 2021
  • Release year: 2021
  • Runtime: 97 mintues
  • Country: United States
  • Keywords: sequel, second part, alien, post apocalypse, psychotronic film
Plot:
Following the events at home, the Abbott family now face the terrors of the outside world. Forced to venture into the unknown, they realize the creatures that hunt by sound are not the only threats lurking beyond the sand path.

Available in versions:
Other Telecine x264 x265 720p 1080p 4k

Files

A Quiet Place Part Ii 2021 x264 720p Esub BluRay Dual Audio English Hindi GOPI SAHI.mkv (835.5 MB)
A Quiet Place Part Ii 2021 x264 720p Esub BluRay Dual Audio English Hindi GOPI SAHI.mkv 835.5 MB

Description

Greets

Admin , Moderator , Noir, Ex0duS5150, theeshiznit, MisterQ, UserHEVC, miok, Silmarillion, Mr. Blue, MaDHeX and many more ;

Join Us On TeleGram

https://t.me/joinchat/A6E91VCaHNo1Mjll



A Quiet Place Part Ii 2021 x264 720p Esub BluRay Dual Audio English Hindi GOPI SAHI

Format : Matroska
Format version : Version 4
File size : 835 MiB
Duration : 1 h 37 min
Overall bit rate : 1 204 kb/s
Movie name : A Quiet Place Part Ii 2021 GOPI SAHI
Encoded date : UTC 2021-11-24 06:12:01

Video
ID : 1
Format : AVC
Format/Info : Advanced Video Codec
Format profile : [email protected]
Format settings : CABAC / 5 Ref Frames
Format settings, CABAC : Yes
Format settings, Reference fra : 5 frames
Codec ID : V_MPEG4/ISO/AVC
Duration : 1 h 37 min
Bit rate : 899 kb/s
Width : 1 280 pixels
Height : 534 pixels
Display aspect ratio : 2.40:1
Frame rate mode : Constant
Frame rate : 23.976 (24000/1001) FPS
Color space : YUV
Chroma subsampling : 4:2:0
Bit depth : 8 bits
Scan type : Progressive
Bits/(Pixel*Frame) : 0.055
Stream size : 623 MiB (75%)
Title : GOPI SAHI
Writing library : x264 core 157 r2935 545de2f


Audio #1
ID : 2
Format : AAC LC
Format/Info : Advanced Audio Codec Low Complexity
Codec ID : A_AAC-2
Duration : 1 h 37 min
Bit rate : 96.0 kb/s
Channel(s) : 2 channels
Channel layout : L R
Sampling rate : 48.0 kHz
Frame rate : 46.875 FPS (1024 SPF)
Compression mode : Lossy
Delay relative to video : -21 ms
Stream size : 66.2 MiB (8%)
Title : GOPI SAHI
Language : Hindi
Default : Yes
Forced : No

Audio #2
ID : 3
Format : AAC LC
Format/Info : Advanced Audio Codec Low Complexity
Codec ID : A_AAC-2
Duration : 1 h 37 min
Bit rate : 78.8 kb/s
Channel(s) : 2 channels
Channel layout : L R
Sampling rate : 48.0 kHz
Frame rate : 46.875 FPS (1024 SPF)
Compression mode : Lossy
Delay relative to video : -21 ms
Stream size : 54.7 MiB (7%)
Title : GOPI SAHI
Language : English
Default : No
Forced : No

Audio #3
ID : 4
Format : AAC LC
Format/Info : Advanced Audio Codec Low Complexity
Codec ID : A_AAC-2
Duration : 1 h 37 min
Bit rate : 63.6 kb/s
Channel(s) : 2 channels
Channel layout : L R
Sampling rate : 48.0 kHz
Frame rate : 46.875 FPS (1024 SPF)
Compression mode : Lossy
Delay relative to video : -21 ms
Stream size : 44.1 MiB (5%)
Title : GOPI SAHI
Language : Tamil
Default : No
Forced : No

Audio #4
ID : 5
Format : AAC LC
Format/Info : Advanced Audio Codec Low Complexity
Codec ID : A_AAC-2
Duration : 1 h 37 min
Bit rate : 63.6 kb/s
Channel(s) : 2 channels
Channel layout : L R
Sampling rate : 48.0 kHz
Frame rate : 46.875 FPS (1024 SPF)
Compression mode : Lossy
Delay relative to video : -21 ms
Stream size : 44.1 MiB (5%)
Title : GOPI SAHI
Language : Telugu
Default : No
Forced : No

Text
Language : English





Related Torrents

Trackers

Tracker name
udp://p4p.arenabg.com:1337/announce
udp://exodus.desync.com:6969/announce
udp://tracker.sbsub.com:2710/announce
udp://tracker.opentrackr.org:1337/announce
udp://open.stealth.si:80/announce
udp://retracker.lanta-net.ru:2710/announce
http://bt1.archive.org:6969/announce
http://bt2.archive.org:6969/announce
http://tracker.files.fm:6969/announce
udp://tracker.zerobytes.xyz:1337/announce
https://tracker.nitrix.me:443/announce
udp://cutiegirl.ru:6969/announce
udp://vibe.community:6969/announce
udp://wassermann.online:6969/announce
udp://tracker.zer0day.to:1337/announce
udp://tracker.leechers-paradise.org:6969/announce
udp://coppersurfer.tk:6969/announce
Torrent hash: F9A4ABF0C6ADD4D53FC54B76E5627C1608CEE181

0 Comment

Login to post comments