A Boy Called Christmas 2021 x264 720p NeTfLiX WebHD Esub AAC English Hindi THE GOPI SAHI


0

0
seeders: 2 leechers: 33 updated: 1 week ago
Added 1 week ago in Movies - Dubbed Movies
Downloaded 12 times.
A Boy Called Christmas 2021 x264 720p NeTfLiX WebHD Esub AAC English Hindi THE GOPI SAHI
  • Release date: 24 Nov 2021
  • Release year: 2021
  • Runtime: 106 mintues
  • Country: United Kingdom, France
  • Keywords: christmas, holiday, boy, gift, father
Plot:
An ordinary young boy called Nikolas sets out on an extraordinary adventure into the snowy north in search of his father who is on a quest to discover the fabled village of the elves, Elfhelm. Taking with him a headstrong reindeer called Blitzen and a loyal pet mouse, Nikolas soon meets his destiny in this magical, comic and endearing story that proves nothing is impossible.

Available in versions:
Other x264 720p 1080p

Files

A Boy Called Christmas 2021 x264 720p NeTfLiX WebHD Esub AAC English Hindi THE GOPI SAHI.mkv (902.6 MB)
A Boy Called Christmas 2021 x264 720p NeTfLiX WebHD Esub AAC English Hindi THE GOPI SAHI.mkv 902.6 MB

Description

Greets

Admin , Moderator , Noir, Ex0duS5150, theeshiznit, MisterQ, UserHEVC, miok, Silmarillion, Mr. Blue, MaDHeX and many more ;

Join Us On TeleGram

https://t.me/joinchat/A6E91VCaHNo1Mjll



A Boy Called Christmas 2021 x264 720p NeTfLiX WebHD Esub AAC English Hindi THE GOPI SAHI

Format : Matroska
Format version : Version 4
File size : 903 MiB
Duration : 1 h 46 min
Overall bit rate : 1 182 kb/s
Movie name : A Boy Called Christmas 2021 GOPI SAHI
Encoded date : UTC 2021-11-24 16:02:15

Video
ID : 1
Format : AVC
Format/Info : Advanced Video Codec
Format profile : [email protected]
Format settings : CABAC / 12 Ref Frames
Format settings, CABAC : Yes
Format settings, Reference fra : 12 frames
Codec ID : V_MPEG4/ISO/AVC
Duration : 1 h 46 min
Bit rate : 899 kb/s
Width : 1 280 pixels
Height : 534 pixels
Display aspect ratio : 2.40:1
Frame rate mode : Constant
Frame rate : 24.000 FPS
Color space : YUV
Chroma subsampling : 4:2:0
Bit depth : 8 bits
Scan type : Progressive
Bits/(Pixel*Frame) : 0.055
Stream size : 686 MiB (76%)
Title : GOPI SAHI
Writing library : x264 core 163 r3059 b684ebe0

Audio #1
ID : 2
Format : AAC LC
Format/Info : Advanced Audio Codec Low Complexity
Codec ID : A_AAC-2
Duration : 1 h 46 min
Bit rate : 187 kb/s
Channel(s) : 6 channels
Channel layout : C L R Ls Rs LFE
Sampling rate : 48.0 kHz
Frame rate : 46.875 FPS (1024 SPF)
Compression mode : Lossy
Delay relative to video : -21 ms
Stream size : 142 MiB (16%)
Title : GOPI SAHI
Language : Hindi
Default : Yes
Forced : No

Audio #2
Format : AAC LC
Format/Info : Advanced Audio Codec Low Complexity
Codec ID : A_AAC-2
Duration : 1 h 46 min
Bit rate : 93.5 kb/s
Channel(s) : 2 channels
Channel layout : L R
Sampling rate : 48.0 kHz
Frame rate : 46.875 FPS (1024 SPF)
Compression mode : Lossy
Delay relative to video : -21 ms
Stream size : 71.4 MiB (8%)
Title : GOPI SAHI
Language : English

Text
Language : English





Related Torrents

Trackers

Tracker name
udp://p4p.arenabg.com:1337/announce
udp://exodus.desync.com:6969/announce
udp://tracker.sbsub.com:2710/announce
udp://tracker.opentrackr.org:1337/announce
udp://open.stealth.si:80/announce
udp://retracker.lanta-net.ru:2710/announce
http://bt1.archive.org:6969/announce
http://bt2.archive.org:6969/announce
http://tracker.files.fm:6969/announce
udp://tracker.zerobytes.xyz:1337/announce
https://tracker.nitrix.me:443/announce
udp://cutiegirl.ru:6969/announce
udp://vibe.community:6969/announce
udp://wassermann.online:6969/announce
udp://tracker.zer0day.to:1337/announce
udp://tracker.leechers-paradise.org:6969/announce
udp://coppersurfer.tk:6969/announce
Torrent hash: 0A1590DE8EEF72F094E148F71F5DCF1A05DEDB44

0 Comment

Login to post comments